#TITLE:VerTex;
#SUBTITLE:;
#ARTIST:KaW;
#TITLETRANSLIT:;
#SUBTITLETRANSLIT:;
#ARTISTTRANSLIT:;
#CREDIT:Roxor Games;
#BANNER:vertex-banner.png;
#BACKGROUND:vertex.png;
#LYRICSPATH:;
#CDTITLE:;
#MUSIC:VerTex.mp3;
#MUSICBYTES:0;
#MUSICLENGTH:119.588;
#OFFSET:-0.110;
#SAMPLESTART:44.520;
#SAMPLELENGTH:12.000;
#SELECTABLE:YES;
#BPMS:0.000=250.000,160.000=119.000,168.000=250.000,176.000=119.000,184.000=250.000,192.000=110.000,192.500=100.000,193.000=90.000,193.500=80.000,194.000=70.000,194.500=55.000,195.000=40.000,195.500=25.000,196.000=250.000,297.000=224.000,361.000=250.000;
#STOPS:196.000=0.400;
#BGCHANGES:;
#FIRSTBEAT:32.000;
#LASTBEAT:392.000;

//---------------dance-single - KILLER----------------
#NOTES:
     dance-single:
     KILLER:
     hard:
     9:
     0.610,0.697,0.159,0.017,0.033:

              
0000
0000
0000
0000
,              
0000
0000
0000
0000
,              
0000
0000
0000
0000
,              
0000
0000
0000
0000
,              
0000
0000
0000
0000
,              
0000
0000
0000
0000
,              
0000
0000
0000
0000
,              
0000
0000
0000
0000
,              
1000
0010
0100
0001
,               
0100
0010
1000
0100
,               
1000
0010
0100
0001
,               
0100
0000
0000
0010
0000
1000
0000
0010
,               
0100
0010
1000
0100
,               
0010
0100
1000
0010
,               
0100
0010
1000
0100
,               
0010
0100
1000
0100
0010
0000
0000
0001
,               
1000
0001
0010
0001
,               
0100
0001
1000
0001
,               
0100
0010
0100
0010
,               
1000
0000
0000
0010
0000
0100
0000
0001
,               
1000
0100
0010
0100
,               
1000
0010
0100
0001
,               
1000
0100
0010
0001
,               
0100
0010
0100
0001
0100
0010
0100
0000
,               
1000
0100
0010
0001
0000
1000
0000
0010
,               
0000
0100
0000
0001
1000
0000
0100
0000
,               
1000
0100
0010
0001
0000
0010
0000
0100
,               
0000
1000
0000
0100
0010
0000
0000
0000
,               
0001
0010
0100
1000
0000
0100
0000
0010
,               
0000
0100
0000
1000
0001
0000
1000
0000
,               
0001
0010
0100
1000
0000
0100
0000
1000
,               
0010
1000
0100
0000
1001
0000
0000
0000
,               
1000
0010
0100
0001
0000
1000
0000
0100
,               
0000
0010
0000
0001
1000
0000
0010
0000
,               
1000
0010
0100
0001
0000
0100
0000
0010
,               
0000
1000
0000
0010
0100
0000
0000
0000
,               
0001
0100
0010
1000
0000
0010
0000
0100
,               
0000
0010
0000
1000
0001
0000
1000
0000
,               
0001
0100
0010
1000
0000
1000
0001
0010
,               
0100
1000
0000
1000
0001
0100
0010
1000
,               
0010
0000
0000
0000
0100
0000
0000
0000
1001
0000
0000
0000
0001
0010
0001
0010
,               
0100
0000
0000
0000
0010
0000
0000
0000
1001
0000
0000
0000
1000
0100
1000
0100
,               
0010
0001
0010
0000
0100
1000
0100
0000
,               
0010
0001
0010
0000
0100
1000
0100
0000
,               
0010
0000
0000
0000
0100
0000
1000
0000
0010
0000
0000
0000
0100
0010
0100
0010
,               
1000
0000
0000
0000
0010
0000
0100
0000
0001
0000
0000
0000
0010
0100
0010
0100
,               
1000
0100
1000
0000
0100
0010
0100
0000
,               
0010
0001
0010
0000
0001
0100
0001
0000
,               
2002
0000
0000
0000
,               
3003
0000
0100
0000
1000
0010
1000
0000
,               
0010
0000
0100
0001
0000
0001
0100
0000
,               
1001
0000
0000
0000
1000
0010
0100
0010
,               
0100
0000
0001
1000
0000
1000
0100
0000
,               
1100
0000
0000
0000
0001
0100
0010
0100
,               
0010
0000
1000
0100
0000
0100
0010
0000
,               
0011
0000
1000
0100
0000
1000
0010
0000
,               
0100
0001
0000
0001
0010
0001
0100
0010
,               
1000
0000
0100
0000
0100
0001
0000
0001
,               
0100
0010
0100
0000
0100
0010
0000
0010
,               
1000
0100
1000
0000
1000
0001
0000
0001
,               
0100
0010
0000
0000
0001
0010
0100
0000
,               
0110
0000
0010
0000
0010
0001
0000
0001
,               
0100
0010
1000
0000
1000
0100
0000
0100
,               
1000
0010
0100
0000
0100
0001
0000
0001
,               
1000
0010
0100
0001
0010
0100
0010
0000
,               
0011
0000
1000
0000
0100
0010
0000
0010
,               
0001
0100
0010
0000
0010
1000
0000
1000
,               
0100
0010
0001
0000
0001
0010
0000
0010
,               
0100
1000
0100
0000
1000
0001
1000
0000
,               
1001
0000
1000
0000
1000
0100
0000
0100
,               
1000
0100
0010
0000
0010
0001
0000
0001
,               
0010
0100
1000
0000
1000
0100
0000
0100
,               
1000
0100
0010
0000
0010
0001
0010
0001
,               
0010
0000
1001
0000
0000
1010
0000
0101
,               
0000
0000
1001
0000
1000
0100
1000
0000
,               
1000
0100
0000
0100
1000
0001
1000
0010
,               
1000
0000
1001
0000
0001
0010
0001
0000
,               
0001
0100
0000
0100
0001
1000
0001
0100
,               
0001
0000
1001
0000
1000
0010
1000
0000
,               
1000
0010
0000
0010
1000
0001
1000
0100
,               
1000
0000
1001
0000
0001
0100
0001
0000
,               
0001
0010
0000
0010
0001
1000
0001
0010
,               
0001
0000
0100
0000
0100
0010
0100
0000
,               
0100
0001
0000
0001
0100
1000
0100
0001
,               
0100
0010
0100
1001
,               
0000
1000
0100
1001
,               
0000
0000
1000
0100
1000
0100
1000
0100
,               
1000
0100
0010
0100
0010
0100
0010
0100
,               
1000
0010
0100
0001
0100
0001
0100
0001
,               
0100
0001
0100
0010
0100
0010
1000
0001
,               
0010
0100
1000
0100
1000
0000
1000
0010
,               
1000
0000
1000
0001
1000
0000
0100
0001
,               
0100
0000
0010
0001
0010
0000
0010
0100
,               
0010
0000
1000
0100
1000
0000
0010
0100
,               
0010
0000
0001
0100
0001
0000
0001
0010
,               
0001
0000
0001
1000
0001
0000
0100
1000
,               
0100
0000
0010
1000
0010
0000
0010
0100
,               
0010
0000
0001
0100
0001
0000
0010
0100
,               
0010
0000
0000
0000;
